русские народные сказки - Сказки для самых маленьких

Скачать

 русские народные сказки - Сказки для самых маленьких

Сказки для самых маленьких

Автор:Русские народные сказки

Исполнитель: Лебедева Галина

Жанр: аудио сказка

Издательство: TWIC LYREC

Язык: русский

Тип: аудиокнига

Аудио кодек: FLAC

Битрейт аудио: lossless

Описание: 01.колобок

02.теремок

03.журавль и цапля

04.лиса и заяц

05.лисичка сестричка и волк

06.лиса и тетерев

07.медведь и лиса

08.лиса и журавль

09.кривая уточка

10.медведь-липовая нога

11.петушок золотой гребешок

12.рак и ворона

13.пузырь,соломинка и лапоть

14.как лиса училась летать

15.репка

Продолжительность:56.17

отчет EAC об извлечении

Exact Audio Copy V0.99 prebeta 4 from 23. January 2008

Отчёт EAC об извлечении, выполненном 25. марта 2009, 20:04

- / -

Дисковод: Optiarc DVD RW AD-7170S Adapter: 0 ID: 1

Режим чтения : Достоверность

Использование точного потока : Да

Отключение кэша аудио : Да

Использование указателей C2 : Нет

Коррекция смещения при чтении : 48

Способность читать области Lead-in и Lead-out : Нет

Заполнение пропущенных сэмплов тишиной : Да

Удаление блоков с тишиной в начале и конце : Нет

При вычислениях CRC использовались нулевые сэмплы : Да

Интерфейс : Установленный внешний ASPI-интерфейс

Выходной формат : Внутренние WAV-операции

Формат сэмплов : 44.100 Гц; 16 бит; стерео

TOC извлечённого CD

Трек | Старт | Длительность | Начальный сектор | Конечный сектор

---------------------------------------------------------------------

1 | 0:00.00 | 5:08.17 | 0 | 23116

2 | 5:08.17 | 4:22.01 | 23117 | 42767

3 | 9:30.18 | 3:12.49 | 42768 | 57216

4 | 12:42.67 | 5:44.58 | 57217 | 83074

5 | 18:27.50 | 6:22.36 | 83075 | 111760

6 | 24:50.11 | 2:06.56 | 111761 | 121266

7 | 26:56.67 | 4:31.67 | 121267 | 141658

8 | 31:28.59 | 3:07.26 | 141659 | 155709

9 | 34:36.10 | 3:06.63 | 155710 | 169722

10 | 37:42.73 | 4:06.23 | 169723 | 188195

11 | 41:49.21 | 6:29.74 | 188196 | 217444

12 | 48:19.20 | 1:44.67 | 217445 | 225311

13 | 50:04.12 | 1:27.71 | 225312 | 231907

14 | 51:32.08 | 2:01.28 | 231908 | 241010

15 | 53:33.36 | 2:43.09 | 241011 | 253244

Характеристики диапазона извлечения и сообщения об ошибках

Выбранный диапазон

Имя файла C:\Documents and Settings\Admin\Мои документы\CDImage.wav

Пиковый уровень 100.0 %

Качество диапазона 100.0 %

CRC копии 5E620624

Копирование... OK

Ошибок не произошло

Скачать