Ник Кейв \ Nick Cave - Смерть Банни Манро \ The Death of Bunny Munro

Скачать

Смерть Банни Манро \ The Death of Bunny Munro

Год выпуска: 2009

Автор: Ник Кейв \ Nick Cave

Исполнитель: Ник Кейв \ Nick Cave

Жанр: adventure story

Издательство: Canongate

Язык: English

Тип: аудиокнига

Аудио кодек: FLAC

Битрейт аудио: lossless

Описание:

Ник Кейв читает вслух свою вторую книгу от корки до корки.

Музыкальное сопровождение сочинено Кейвом в соавторстве с Уорреном Эллисом. Звук записан в формате "новаторского 3D пространственного микширования, специально отстроенного для прослушивания в наушниках, обеспечивающего полное погружение слушателя".

Данные EAC о рипе (режим test&copy tracks):

диск 1

Exact Audio Copy V0.99 prebeta 5 from 4. May 2009

EAC extraction logfile from 30. November 2009, 15:27

Nick Cave / The Death of Bunny Munro [1]

Used drive : TSSTcorpCDDVDW TS-L632H Adapter: 0 ID: 0

Read mode : Secure

Utilize accurate stream : Yes

Defeat audio cache : Yes

Make use of C2 pointers : No

Read offset correction : 6

Overread into Lead-In and Lead-Out : No

Fill up missing offset samples with silence : Yes

Delete leading and trailing silent blocks : No

Null samples used in CRC calculations : Yes

Used interface : Native Win32 interface for Win NT & 2000

Gap handling : Not detected, thus appended to previous track

Used output format : User Defined Encoder

Selected bitrate : 1024 kBit/s

Quality : High

Add ID3 tag : No

Command line compressor : C:\Program Files\Exact Audio Copy\FLAC\FLAC.EXE

Additional command line options : -8 -V -T "ARTIST=%a" -T "TITLE=%t" -T "ALBUM=%g" -T "DATE=%y" -T "TRACKNUMBER=%n" -T "GENRE=%m" -T "COMMENT=%e" %s -o %d

TOC of the extracted CD

Track | Start | Length | Start sector | End sector

---------------------------------------------------------

1 | 0:00.00 | 14:12.71 | 0 | 63970

2 | 14:12.71 | 14:32.46 | 63971 | 129416

3 | 28:45.42 | 7:04.11 | 129417 | 161227

4 | 35:49.53 | 12:53.48 | 161228 | 219250

5 | 48:43.26 | 21:58.61 | 219251 | 318161

Track 1

Filename D:\newCAVE\Nick Cave\The Death of Bunny Munro [1]\01. Chapter 1.wav

Peak level 98.8 %

Track quality 100.0 %

Test CRC 9FCB71FA

Copy CRC 9FCB71FA

Copy OK

Track 2

Filename D:\newCAVE\Nick Cave\The Death of Bunny Munro [1]\02. Chapter 2.wav

Peak level 98.8 %

Track quality 100.0 %

Test CRC 1FE39057

Copy CRC 1FE39057

Copy OK

Track 3

Filename D:\newCAVE\Nick Cave\The Death of Bunny Munro [1]\03. Chapter 3.wav

Peak level 98.8 %

Track quality 100.0 %

Test CRC C810B568

Copy CRC C810B568

Copy OK

Track 4

Filename D:\newCAVE\Nick Cave\The Death of Bunny Munro [1]\04. Chapter 4.wav

Peak level 98.8 %

Track quality 100.0 %

Test CRC F248A955

Copy CRC F248A955

Copy OK

Track 5

Filename D:\newCAVE\Nick Cave\The Death of Bunny Munro [1]\05. Chapter 5.wav

Peak level 98.8 %

Track quality 100.0 %

Test CRC B34DCD05

Copy CRC B34DCD05

Copy OK

No errors occurred

End of status report

диск 2

Exact Audio Copy V0.99 prebeta 5 from 4. May 2009

EAC extraction logfile from 30. November 2009, 17:07

Nick Cave / The Death of Bunny Munro [2]

Used drive : TSSTcorpCDDVDW TS-L632H Adapter: 0 ID: 0

Read mode : Secure

Utilize accurate stream : Yes

Defeat audio cache : Yes

Make use of C2 pointers : No

Read offset correction : 6

Overread into Lead-In and Lead-Out : No

Fill up missing offset samples with silence : Yes

Delete leading and trailing silent blocks : No

Null samples used in CRC calculations : Yes

Used interface : Native Win32 interface for Win NT & 2000

Gap handling : Not detected, thus appended to previous track

Used output format : User Defined Encoder

Selected bitrate : 1024 kBit/s

Quality : High

Add ID3 tag : No

Command line compressor : C:\Program Files\Exact Audio Copy\FLAC\FLAC.EXE

Additional command line options : -8 -V -T "ARTIST=%a" -T "TITLE=%t" -T "ALBUM=%g" -T "DATE=%y" -T "TRACKNUMBER=%n" -T "GENRE=%m" -T "COMMENT=%e" %s -o %d

TOC of the extracted CD

Track | Start | Length | Start sector | End sector

---------------------------------------------------------

1 | 0:00.00 | 18:03.66 | 0 | 81290

2 | 18:03.66 | 14:49.28 | 81291 | 147993

3 | 32:53.19 | 19:01.26 | 147994 | 233594

4 | 51:54.45 | 11:41.01 | 233595 | 286170

5 | 63:35.46 | 12:03.22 | 286171 | 340417

Track 1

Filename D:\newCAVE\Nick Cave\The Death of Bunny Munro [2]\01. Chapter 6.wav

Peak level 98.8 %

Track quality 100.0 %

Test CRC F35671FA

Copy CRC F35671FA

Copy OK

Track 2

Filename D:\newCAVE\Nick Cave\The Death of Bunny Munro [2]\02. Chapter 7.wav

Peak level 98.8 %

Track quality 100.0 %

Test CRC 0041FAC6

Copy CRC 0041FAC6

Copy OK

Track 3

Filename D:\newCAVE\Nick Cave\The Death of Bunny Munro [2]\03. Chapter 8.wav

Peak level 98.8 %

Track quality 100.0 %

Test CRC 4D75408D

Copy CRC 4D75408D

Copy OK

Track 4

Filename D:\newCAVE\Nick Cave\The Death of Bunny Munro [2]\04. Chapter 9.wav

Peak level 98.8 %

Track quality 100.0 %

Test CRC 26A2961E

Copy CRC 26A2961E

Copy OK

Track 5

Filename D:\newCAVE\Nick Cave\The Death of Bunny Munro [2]\05. Chapter 10.wav

Peak level 98.8 %

Track quality 100.0 %

Test CRC 616A2123

Copy CRC 616A2123

Copy OK

No errors occurred

End of status report

диск3

Exact Audio Copy V0.99 prebeta 5 from 4. May 2009

EAC extraction logfile from 30. November 2009, 17:43

Nick Cave / The Death of Bunny Munro [3]

Used drive : TSSTcorpCDDVDW TS-L632H Adapter: 0 ID: 0

Read mode : Secure

Utilize accurate stream : Yes

Defeat audio cache : Yes

Make use of C2 pointers : No

Read offset correction : 6

Overread into Lead-In and Lead-Out : No

Fill up missing offset samples with silence : Yes

Delete leading and trailing silent blocks : No

Null samples used in CRC calculations : Yes

Used interface : Native Win32 interface for Win NT & 2000

Gap handling : Not detected, thus appended to previous track

Used output format : User Defined Encoder

Selected bitrate : 1024 kBit/s

Quality : High

Add ID3 tag : No

Command line compressor : C:\Program Files\Exact Audio Copy\FLAC\FLAC.EXE

Additional command line options : -8 -V -T "ARTIST=%a" -T "TITLE=%t" -T "ALBUM=%g" -T "DATE=%y" -T "TRACKNUMBER=%n" -T "GENRE=%m" -T "COMMENT=%e" %s -o %d

TOC of the extracted CD

Track | Start | Length | Start sector | End sector

---------------------------------------------------------

1 | 0:00.00 | 10:02.15 | 0 | 45164

2 | 10:02.15 | 26:38.51 | 45165 | 165065

3 | 36:40.66 | 11:04.55 | 165066 | 214920

4 | 47:45.46 | 15:25.20 | 214921 | 284315

Track 1

Filename D:\newCAVE\Nick Cave\The Death of Bunny Munro [3]\01. Chapter 11.wav

Peak level 98.8 %

Track quality 100.0 %

Test CRC 891476C8

Copy CRC 891476C8

Copy OK

Track 2

Filename D:\newCAVE\Nick Cave\The Death of Bunny Munro [3]\02. Chapter 12.wav

Peak level 98.8 %

Track quality 100.0 %

Test CRC F88E8323

Copy CRC F88E8323

Copy OK

Track 3

Filename D:\newCAVE\Nick Cave\The Death of Bunny Munro [3]\03. Chapter 13.wav

Peak level 98.8 %

Track quality 100.0 %

Test CRC 2378A93B

Copy CRC 2378A93B

Copy OK

Track 4

Filename D:\newCAVE\Nick Cave\The Death of Bunny Munro [3]\04. Chapter 14.wav

Peak level 98.8 %

Track quality 100.0 %

Test CRC FF45BFC4

Copy CRC FF45BFC4

Copy OK

No errors occurred

End of status report

диск4

Exact Audio Copy V0.99 prebeta 5 from 4. May 2009

EAC extraction logfile from 30. November 2009, 18:05

Nick Cave / The Death of Bunny Munro [4]

Used drive : TSSTcorpCDDVDW TS-L632H Adapter: 0 ID: 0

Read mode : Secure

Utilize accurate stream : Yes

Defeat audio cache : Yes

Make use of C2 pointers : No

Read offset correction : 6

Overread into Lead-In and Lead-Out : No

Fill up missing offset samples with silence : Yes

Delete leading and trailing silent blocks : No

Null samples used in CRC calculations : Yes

Used interface : Native Win32 interface for Win NT & 2000

Gap handling : Not detected, thus appended to previous track

Used output format : User Defined Encoder

Selected bitrate : 1024 kBit/s

Quality : High

Add ID3 tag : No

Command line compressor : C:\Program Files\Exact Audio Copy\FLAC\FLAC.EXE

Additional command line options : -8 -V -T "ARTIST=%a" -T "TITLE=%t" -T "ALBUM=%g" -T "DATE=%y" -T "TRACKNUMBER=%n" -T "GENRE=%m" -T "COMMENT=%e" %s -o %d

TOC of the extracted CD

Track | Start | Length | Start sector | End sector

---------------------------------------------------------

1 | 0:00.00 | 23:35.01 | 0 | 106125

2 | 23:35.01 | 15:55.72 | 106126 | 177822

3 | 39:30.73 | 9:37.12 | 177823 | 221109

4 | 49:08.10 | 16:42.26 | 221110 | 296285

Track 3

Filename D:\newCAVE\Nick Cave\The Death of Bunny Munro [4]\03. Chapter 17.wav

Peak level 98.8 %

Track quality 100.0 %

Test CRC 217FF549

Copy CRC 217FF549

Copy OK

No errors occurred

End of status report

------------------------------------------------------------

Exact Audio Copy V0.99 prebeta 5 from 4. May 2009

EAC extraction logfile from 30. November 2009, 20:33

Nick Cave / The Death of Bunny Munro [4]

Used drive : TSSTcorpCDDVDW TS-L632H Adapter: 0 ID: 0

Read mode : Secure

Utilize accurate stream : Yes

Defeat audio cache : Yes

Make use of C2 pointers : No

Read offset correction : 6

Overread into Lead-In and Lead-Out : No

Fill up missing offset samples with silence : Yes

Delete leading and trailing silent blocks : No

Null samples used in CRC calculations : Yes

Used interface : Native Win32 interface for Win NT & 2000

Gap handling : Not detected, thus appended to previous track

Used output format : User Defined Encoder

Selected bitrate : 1024 kBit/s

Quality : High

Add ID3 tag : No

Command line compressor : C:\Program Files\Exact Audio Copy\FLAC\FLAC.EXE

Additional command line options : -8 -V -T "ARTIST=%a" -T "TITLE=%t" -T "ALBUM=%g" -T "DATE=%y" -T "TRACKNUMBER=%n" -T "GENRE=%m" -T "COMMENT=%e" %s -o %d

TOC of the extracted CD

Track | Start | Length | Start sector | End sector

---------------------------------------------------------

1 | 0:00.00 | 23:35.01 | 0 | 106125

2 | 23:35.01 | 15:55.72 | 106126 | 177822

3 | 39:30.73 | 9:37.12 | 177823 | 221109

4 | 49:08.10 | 16:42.26 | 221110 | 296285

Track 1

Filename D:\newCAVE\Nick Cave\The Death of Bunny Munro [4]\01. Chapter 15.wav

Peak level 98.8 %

Track quality 100.0 %

Test CRC 1BD0053B

Copy CRC 1BD0053B

Track not present in AccurateRip database

Copy OK

Track 2

Filename D:\newCAVE\Nick Cave\The Death of Bunny Munro [4]\02. Chapter 16.wav

Peak level 98.8 %

Track quality 100.0 %

Test CRC D8F0E640

Copy CRC D8F0E640

Track not present in AccurateRip database

Copy OK

Track 4

Filename D:\newCAVE\Nick Cave\The Death of Bunny Munro [4]\04. Chapter 18.wav

Peak level 98.8 %

Track quality 100.0 %

Test CRC 0B68D920

Copy CRC 0B68D920

Track not present in AccurateRip database

Copy OK

None of the tracks are present in the AccurateRip database

No errors occurred

End of status report

диск5

Exact Audio Copy V0.99 prebeta 5 from 4. May 2009

EAC extraction logfile from 30. November 2009, 20:00

Nick Cave / The Death of Bunny Munro [5]

Used drive : TSSTcorpCDDVDW TS-L632H Adapter: 0 ID: 0

Read mode : Secure

Utilize accurate stream : Yes

Defeat audio cache : Yes

Make use of C2 pointers : No

Read offset correction : 6

Overread into Lead-In and Lead-Out : No

Fill up missing offset samples with silence : Yes

Delete leading and trailing silent blocks : No

Null samples used in CRC calculations : Yes

Used interface : Native Win32 interface for Win NT & 2000

Gap handling : Not detected, thus appended to previous track

Used output format : User Defined Encoder

Selected bitrate : 1024 kBit/s

Quality : High

Add ID3 tag : No

Command line compressor : C:\Program Files\Exact Audio Copy\FLAC\FLAC.EXE

Additional command line options : -8 -V -T "ARTIST=%a" -T "TITLE=%t" -T "ALBUM=%g" -T "DATE=%y" -T "TRACKNUMBER=%n" -T "GENRE=%m" -T "COMMENT=%e" %s -o %d

TOC of the extracted CD

Track | Start | Length | Start sector | End sector

---------------------------------------------------------

1 | 0:00.00 | 15:34.65 | 0 | 70114

2 | 15:34.65 | 17:19.37 | 70115 | 148076

3 | 32:54.27 | 11:11.11 | 148077 | 198412

4 | 44:05.38 | 11:28.48 | 198413 | 250060

5 | 55:34.11 | 17:19.13 | 250061 | 327998

Track 1

Filename D:\newCAVE\Nick Cave\The Death of Bunny Munro [5]\01. Chapter 19.wav

Peak level 98.8 %

Track quality 100.0 %

Test CRC 7AFDEDB0

Copy CRC 7AFDEDB0

Track not present in AccurateRip database

Copy OK

Track 2

Filename D:\newCAVE\Nick Cave\The Death of Bunny Munro [5]\02. Chapter 20.wav

Peak level 98.8 %

Track quality 100.0 %

Test CRC 8E78EA0F

Copy CRC 8E78EA0F

Track not present in AccurateRip database

Copy OK

Track 3

Filename D:\newCAVE\Nick Cave\The Death of Bunny Munro [5]\03. Chapter 21.wav

Peak level 98.8 %

Track quality 100.0 %

Test CRC F9B6E302

Copy CRC F9B6E302

Track not present in AccurateRip database

Copy OK

Track 4

Filename D:\newCAVE\Nick Cave\The Death of Bunny Munro [5]\04. Chapter 22.wav

Peak level 98.8 %

Track quality 100.0 %

Test CRC 99407E6F

Copy CRC 99407E6F

Track not present in AccurateRip database

Copy OK

Track 5

Filename D:\newCAVE\Nick Cave\The Death of Bunny Munro [5]\05. Chapter 23.wav

Peak level 98.8 %

Track quality 100.0 %

Test CRC 60056517

Copy CRC 60056517

Track not present in AccurateRip database

Copy OK

None of the tracks are present in the AccurateRip database

No errors occurred

End of status report

диск6

Exact Audio Copy V0.99 prebeta 5 from 4. May 2009

EAC extraction logfile from 30. November 2009, 21:30

Nick Cave / The Death of Bunny Munro [6]

Used drive : TSSTcorpCDDVDW TS-L632H Adapter: 0 ID: 0

Read mode : Secure

Utilize accurate stream : Yes

Defeat audio cache : Yes

Make use of C2 pointers : No

Read offset correction : 6

Overread into Lead-In and Lead-Out : No

Fill up missing offset samples with silence : Yes

Delete leading and trailing silent blocks : No

Null samples used in CRC calculations : Yes

Used interface : Native Win32 interface for Win NT & 2000

Gap handling : Not detected, thus appended to previous track

Used output format : User Defined Encoder

Selected bitrate : 1024 kBit/s

Quality : High

Add ID3 tag : No

Command line compressor : C:\Program Files\Exact Audio Copy\FLAC\FLAC.EXE

Additional command line options : -8 -V -T "ARTIST=%a" -T "TITLE=%t" -T "ALBUM=%g" -T "DATE=%y" -T "TRACKNUMBER=%n" -T "GENRE=%m" -T "COMMENT=%e" %s -o %d

TOC of the extracted CD

Track | Start | Length | Start sector | End sector

---------------------------------------------------------

1 | 0:00.00 | 8:06.54 | 0 | 36503

2 | 8:06.54 | 16:18.61 | 36504 | 109914

3 | 24:25.40 | 19:26.00 | 109915 | 197364

4 | 43:51.40 | 14:39.35 | 197365 | 263324

5 | 58:31.00 | 5:23.47 | 263325 | 287596

Track 1

Filename D:\newCAVE\Nick Cave\The Death of Bunny Munro [6]\01. Chapter 24.wav

Peak level 98.8 %

Track quality 100.0 %

Test CRC 93FE6544

Copy CRC 93FE6544

Track not present in AccurateRip database

Copy OK

Track 2

Filename D:\newCAVE\Nick Cave\The Death of Bunny Munro [6]\02. Chapter 25.wav

Peak level 98.8 %

Track quality 100.0 %

Test CRC ED83C695

Copy CRC ED83C695

Track not present in AccurateRip database

Copy OK

Track 3

Filename D:\newCAVE\Nick Cave\The Death of Bunny Munro [6]\03. Chapter 26.wav

Peak level 98.8 %

Track quality 100.0 %

Test CRC ABA84FFF

Copy CRC ABA84FFF

Track not present in AccurateRip database

Copy OK

Track 4

Filename D:\newCAVE\Nick Cave\The Death of Bunny Munro [6]\04. Chapter 27.wav

Peak level 98.8 %

Track quality 100.0 %

Test CRC 33B380F5

Copy CRC 33B380F5

Track not present in AccurateRip database

Copy OK

Track 5

Filename D:\newCAVE\Nick Cave\The Death of Bunny Munro [6]\05. Chapter 28 - part a.wav

Peak level 98.8 %

Track quality 100.0 %

Test CRC 09BEA3CC

Copy CRC 09BEA3CC

Track not present in AccurateRip database

Copy OK

None of the tracks are present in the AccurateRip database

No errors occurred

End of status report

диск7

Exact Audio Copy V0.99 prebeta 5 from 4. May 2009

EAC extraction logfile from 30. November 2009, 22:19

Nick Cave / The Death of Bunny Munro [7]

Used drive : TSSTcorpCDDVDW TS-L632H Adapter: 0 ID: 0

Read mode : Secure

Utilize accurate stream : Yes

Defeat audio cache : Yes

Make use of C2 pointers : No

Read offset correction : 6

Overread into Lead-In and Lead-Out : No

Fill up missing offset samples with silence : Yes

Delete leading and trailing silent blocks : No

Null samples used in CRC calculations : Yes

Used interface : Native Win32 interface for Win NT & 2000

Gap handling : Not detected, thus appended to previous track

Used output format : User Defined Encoder

Selected bitrate : 1024 kBit/s

Quality : High

Add ID3 tag : No

Command line compressor : C:\Program Files\Exact Audio Copy\FLAC\FLAC.EXE

Additional command line options : -8 -V -T "ARTIST=%a" -T "TITLE=%t" -T "ALBUM=%g" -T "DATE=%y" -T "TRACKNUMBER=%n" -T "GENRE=%m" -T "COMMENT=%e" %s -o %d

TOC of the extracted CD

Track | Start | Length | Start sector | End sector

---------------------------------------------------------

1 | 0:00.00 | 15:44.74 | 0 | 70873

2 | 15:44.74 | 8:53.55 | 70874 | 110903

3 | 24:38.54 | 2:57.73 | 110904 | 124251

4 | 27:36.52 | 5:00.56 | 124252 | 146807

5 | 32:37.33 | 18:51.35 | 146808 | 231667

6 | 51:28.68 | 26:20.01 | 231668 | 350168

Track 1

Filename D:\newCAVE\Nick Cave\The Death of Bunny Munro [7]\01. Chapter 28 - part b.wav

Peak level 98.8 %

Track quality 100.0 %

Test CRC 71635B58

Copy CRC 71635B58

Track not present in AccurateRip database

Copy OK

Track 2

Filename D:\newCAVE\Nick Cave\The Death of Bunny Munro [7]\02. Chapter 29.wav

Peak level 98.8 %

Track quality 100.0 %

Test CRC 9FBF9972

Copy CRC 9FBF9972

Track not present in AccurateRip database

Copy OK

Track 3

Filename D:\newCAVE\Nick Cave\The Death of Bunny Munro [7]\03. Chapter 30.wav

Peak level 98.8 %

Track quality 99.9 %

Test CRC 19DB8015

Copy CRC 19DB8015

Track not present in AccurateRip database

Copy OK

Track 4

Filename D:\newCAVE\Nick Cave\The Death of Bunny Munro [7]\04. Chapter 31.wav

Peak level 98.8 %

Track quality 100.0 %

Test CRC F8A7DDFF

Copy CRC F8A7DDFF

Track not present in AccurateRip database

Copy OK

Track 5

Filename D:\newCAVE\Nick Cave\The Death of Bunny Munro [7]\05. Chapter 32.wav

Peak level 98.8 %

Track quality 100.0 %

Test CRC 729E2E96

Copy CRC 729E2E96

Track not present in AccurateRip database

Copy OK

Track 6

Filename D:\newCAVE\Nick Cave\The Death of Bunny Munro [7]\06. Chapter 33.wav

Peak level 98.8 %

Track quality 100.0 %

Test CRC 0A7E09E9

Copy CRC 0A7E09E9

Track not present in AccurateRip database

Copy OK

None of the tracks are present in the AccurateRip database

No errors occurred

End of status report

Отличия от следующие:

Здесь аудиокнига потреково разделена на главы книги - всего 33. (В mp3-раздаче 7 сплошных файлов - по числу дисков.) Данная раздача - лосслессс-рип с фирменного издания.

Скачать