Юрьев день (Евгений Вагнер)

Скачать

Юрьев день (Евгений Вагнер)

Юрьев день

Год выпуска: 2003

Страна: Россия

Жанр: Православно-познавательный

Продолжительность: 00:25:33

Перевод: Не требуется

Русские субтитры: нет

Режиссер: Е. Вагнер

Описание: Фильм-повесть о храме святого великомученика Георгия. В нем рассказывается об истории православного храмостроительства, жизни святого Георгия, традициях празднования Юрьева дня, истории Георгиевского Креста, героических буднях днепропетровской милиции. Одна из главных тем ленты - симфония духовной и государственной власти...

Доп. информация: В фильме присутствуют два трехсекундных кубических артефакта. Рип сделан с этого исходника:

Сэмпл: http://www.sendspace.com/file/lpgv2b

Качество: DVDRip

Формат: AVI

Видео: 1431 Кбит/сек, 688*384 (16:9), в 25,000 кадров/сек, MPEG-4 Visual (XviD) (Advanced Simple@L5) (BVOP2 / Custom Matrix)

Аудио: Русский, 128 Кбит/сек, 48,0 КГц, 2 канала, MPEG Audio (MP3) (Version 1) (Layer 3)

MediaInfo

Общее

Формат : AVI

Формат/Информация : Audio Video Interleave

Размер файла : 287 Мбайт

Продолжительность : 25 м.

Общий поток : 1572 Кбит/сек

Видео

Идентификатор : 0

Формат : MPEG-4 Visual

Профиль формата : Advanced Simple@L5

Параметр BVOP формата : 2

Параметр QPel формата : Нет

Параметр GMC формата : Без точки перехода

Параметр матрицы формата : Выборочная

Идентификатор кодека : XVID

Идентификатор кодека/Подсказка : XviD

Продолжительность : 25 м.

Битрейт : 1431 Кбит/сек

Ширина : 688 пикселей

Высота : 384 пикселя

Соотношение сторон : 16:9

Частота кадров : 25,000 кадров/сек

Цветовое пространство : YUV

Субдискретизация насыщенности : 4:2:0

Битовая глубина : 8 бит

Тип развёртки : Прогрессивная

Метод сжатия : С потерями

Бит/(Пиксели*Кадры) : 0.217

Размер потока : 262 Мбайт (91%)

Библиотека кодирования : XviD 1.2.1 (UTC 2008-12-04)

Аудио

Идентификатор : 1

Формат : MPEG Audio

Версия формата : Version 1

Профиль формата : Layer 3

Идентификатор кодека : 55

Идентификатор кодека/Подсказка : MP3

Продолжительность : 25 м.

Продолжительность оригинала : 25 м.

Вид битрейта : Постоянный

Битрейт : 128 Кбит/сек

Каналы : 2 канала

Частота : 48,0 КГц

Метод сжатия : С потерями

Размер потока : 23,4 Мбайт (8%)

Выравнивание : Разделение по промежуткам

Продолжительность промежутка : 24 мс. (0,60 видеокадр)

Скачать